the beach ost flac Devilman - 2CD - Eternal Dec 09, 2010 · Echo & the Bunnymen- Ocean Rain (1984) MP3 & FLAC "The pleasure of pain endured to purify our misfit ways and magnify our crystal days. Bink's no Sake (Brook Solo Version). Join us today for the ultimate listening experience! "KA-029-30". Operating Room 4. Leftfield - Snakeblood 02. Dua Lipa - Break My Heart 05. Label: London Records - 31079-2,London Records - 4344 35020-2 • Format: CD • Country: UK • Genre: Electronic, Rock, Stage & Screen • Style: Breakbeat, House, Pop Rock, Soundtrack, Trance Jul 26, 2018 · Cradle 2 The Grave OST (2003) (FLAC) 01 X Gon'Give It To Ya 02 Go To Sleep 03 What's It All For 04 Follow Me Gangster 05 Stompdashitoutu 06 Do Sumptin Soundtrack by: Magyari András, Spencer N. It can easily stand alone, and is indeed very enjoyable as an average electro album. 56 MB] 07 - The Beach Boys - Sloop John B. It was a clumsy, bumbling “classic-rock” set better suited for the soundtrack to a bad acid trip. [30142-25] God Mazinger Original Soundtrack Lp [FLAC] Ripped by GnK. × Close Quality: FLAC 16 bit / 44. This is the Original Soundtrack of The Wardrobe, a visually-rich 2D point and click adventure game inspired by the great '90s classics such as 'Monkey Island', 'Day of the Tentacle', 'Sam & Max: Hit the Road' and 'Tony Tough'. Oct 15, 2020 · Music writer George Varga remembers this Solana Beach gig: In 1988, former Cream drummer Ginger Baker gave his first San Diego area performance in 20 years at the Belly Up. FLAC 형식의 압축은 APE(Monkey's Audio), ALAC(Apple Lossless Audio Codec)[2], WV(WavPack. flac [54. OST King Arthur Legend Digitální booklet k albu Teen Beach 2 [Original TV Movie Soundtrack] ve formátu PDF o velikosti A4. Buy download online. Rahman - Rang De Basanti (A Generation Awakens) Carla Boni - Tu Love Actually Soundtrack, find all 33 songs from the Love Actually (2003) movie music soundtrack, with scene descriptions. Треклист: 01. flac 14 MB 09 - Water. 45 MB] 10 The Vortex. zip : 519,48 MB… Original Soundtrack - Arrow Emblem Grand Prix No Taka: Original Bgm flac album. Various Artists · Compilation · 2000 · 14 songs. 5) The AUD had some tuning and stage banter between songs, which were not present on the SBD. “Deep Blue Day” from Trainspotting, directed by Danny Boyle, 1996 A Short Hike (Original Soundtrack) by Mark Sparling, released 05 April 2019 1. 07: 0: 32945 해외-고음질: RadioHead 전 앨범 (FLAC) 2017. Unused (Sound Test This is a collection of what I have found myself and with help. Made in Japan. VA - The Shack OST (2017, 558799-2, FLAC). According to Wirtz, he had been working on an idea for a rock opera since January 1966, when he was experimenting in his London studio and produced a piece of music entitled "A Touch of Velvet 4) Soundtrack Pro was used to clean up numerous instances of light static in the set 1 SBD source. flac - spectrogram 112112. Tracklist: 01 - Title 02 - Title (Ribbon Girl ver. HQ Hip-Hop Blog. Aug 18, 2010 · Tracklist: 01 E-40 - Fatal 02 Kinsui - U Gotta Go (Ft. Broken Chablis 03. LETHAL WEAPON (Michael Kamen/ Eric Clapton/ Davis Sanborn) 2002 скачать в mp3 на телефон или слушайте песню Eric Clapton, Michael Kamen - The Weapon, Lethal Weapon (Michael Kamen/ Eric Clapton/ Davis Sanborn) 1987 - Roger и другие TRACKLIST 01- Barry DeVorzon - Theme From The Warriors (3:58) 02- Arnold McCuller - Nowhere to Run (3:14) 03- Kenny Vance & Ismael Miranda - In Havana (3:57) Oct 22, 2020 · Genre: Soundtrack Date: 2009 Country: USA Audio codec: M4A/FLAC Quality: 320 kbs/lossless Playtime: 1:17:21 Thanks to Santi. flac [50. Flac is 100% compatible with all audio player for Android, iOS, Windows, Mac, Linux and other operation systems. Gigue 04. Pain (Live) (5:16) 03. Unless noted, the cues were composed by Nino Rota and conducted by Carlo Savina (who was credited on the LP, but not the CD). Sep 28, 2019 · Mike Oldfield – The Killing Fields (Original Motion Picture Soundtrack) (1984/2016) [FLAC 24bit/96kHz] Posted by mqs / Posted 1 year ago September 28, 2019 Mike Oldfield – The Killing Fields (Original Motion Picture Soundtrack) (1984/2016) Title: NRJ Beach Party 2020 (2020) FLAC Style: Pop, Dance Release Date: 2020 RAR / ZIP Size: 1040 MB Tracklist: 01. ; Queen Sugar - Season 2 Soundtrack. Detective Sleuthing 5. zip: ~ 3. If you're looking to buy lossless music in FLAC format, from indie to classical to jazz, here are our favorite sites. All Saints - Pure Shores 03. 2 kHz / 24 Bit] FLAC stands for Free Lossless Audio Codec, an audio format similar to MP3, but lossless, meaning that audio is compressed in FLAC without any loss in quality and it sound much better than MP3. The Bucwee Boiz) 03 Young Kyoz - Like Playas (Ft. Cutting A Line At The Tailor 7. 5 hours ago · There is a chance OP is trolling all of us and transcoded a 192kbps mp3 to FLAC. 79K. 45 MB] 10 9. 2 kHz / 24 Bit] The Beach Boys - 1967: Sunshine Tomorrow (2017) The Beach Boys - The Smile Sessions (2011) [Hi-Res stereo 88. rar. Accidentally Like A Martyr (Live) (4:28) 08. zip 480. Frankie Randall, The Astronauts, Cindy Malone, Sandy Nelson, Sonny & Cher, Jackie & Gayle OST The Beach 2000 [FLAC]. The film stars Leonardo DiCaprio, Tilda Swinton, Virginie Ledoyen, Guillaume Canet, and Robert Carlyle. 18 rows · The über-romantic comedy Love Actually has an über-romantic comedy soundtrack t. Various Alternative Rock Acoustic Soft Rock Pop Rock Soul 2003 Canada. Dec 04, 2020 · Industry OST by Nathan Micay, released 04 December 2020 1. SONGS. 264-EVO; Wander 2020 1080p WEB-DL DD5. 1 kHz (Tracks) Artist: Tangerine Dream Title: Pilots Of Purple Twilight: The Virgin Recordings 1980 - 1983 Released: 2020 Style: Electronic, Ambient RAR Size: 2. 29 - Blondie - The Tide Is High (Edit). 05. Some of these are rips from vinyl, some are originally digital (remasters). It is downloaded into Even the Ocean's installation directory under Soundtrack/ . flac [40. zip: ~ 1. Artist: Lounge, Soundtrack Quality: Mp3 / FLAC (tracks +. 70 MB] 08 - The Beach Boys - God Only Knows. Born to Run (Live at The Roxy, West Hollywood, CA - 10/18/75) (04:26) 02. flac [52. Origianl soundtrack of The Wardrobe. Album: The Beach: Motion Picture Soundtrack Label: London Records. Gifts at Dinner 06. 1 kHz (Tracks) Artist: Bruce Springsteen Title: The Live Series: Songs of Summer Released: 2020 Style: Rock RAR Size: 713 Mb Tracklist: 01. Flac Collections Sep 18, 2020 · Genre : Soundtrack Release Date : 2020 Format : Flac (tracks) Quality : 16bit – 44. 16-bit FLAC Preview Corruzione al palazzo di giustizia (Original Motion Picture Soundtrack) Corruzione al palazzo di giustizia (Original Motion Picture Soundtrack) Pino Donaggio 2013 From €10,49 SPACE PIRATE CAPTAIN HARLOCK, Uch Kaizoku Kyaputen Hrokku) ist ein. Jurassic Beach 11. Catalog #: 31079-2 Style: Soundtrack Year: 2000 Format: FLAC (image + . See You At The Top (Short Hike) 4. musik flac\ghost 2014. Somewhere In The Woods (Short Hike) 3. cue,log) Bitrate: CBR 320 kbps / Lossless Time: 48 Oct 27, 2018 · Steins Gate Anime Ost Flac FLAC stands for Free Lossless Audio Codec, an audio format similar to MP3, but lossless, meaning that audio is compressed in FLAC without any loss in quality and it sound much better than MP3. Angelo Badalamenti – Blue Sex. Catalog #: 31079-2 Style: Soundtrack Year: 2000 Format: FLAC (image Chris Rea - On the BeachArtist: Chris Rea Album: On The Beach Label: Magnet. 1745 Followers. Riley - Make It Last Forever. Brutal • New Order. 30 - Dexys Midnight Runners - Come On Eileen. The Rest Of Us (2019) 1080p WEB-DL H264 AC3-EVO; Spy Intervention (2020) 1080p WEB-DL H264 AC3-EVO; Sadistic Intentions (2019) 1080p WEB-DL H264 AC3-EVO Hi-Res 24 bit / FLAC 16 bit / Soundtrack / OST / Score Various Artists - Cyberpunk 2077: Radio, Vol. Genre: Pop Quality: MP3 320 kbps / FLAC (tracks) Total Time: 02:08:10 Total Size: 301. 66 GB:: 14: 11: Anime:. 87 MB] 06 - The Beach Boys - Let's Go Away For A While. Getting Stoned 07. Net tracks the tunes in your entertainment. 1kHz . cue) Bitrate: lossless Covers: in archive Amount of tracks: 14 Size ZIP: ~ 472 mb Upload: nitroflare. Beth Orton - Sugaring Season. 88MB Seeders: 3 Leechers: 0 John and Anne Ryder - 1969 - I Still Believe In Tomorrow [LP- flac ] The Beach Boys Pet Sounds (Mono) 1966 PBTHAL 24/96 Flac vinyl rip. Listen to this and millions more tracks online. Please reload. Love Actually - Various Artists. cue) Total Time : 01:00:32 Total Size : 353 mb WebSite : Tracklist: The Beach Boys - Keep An Eye On Summer: The Beach Boys Sessions 1964 (2014) [Hi-Res stereo 88. This piece was originally released on February 27th, 1995 on album Greatest Hits. 320KB/S MP3 WAV FLAC ALAC Share your videos with friends, family, and the world Filename C:\SoundTrack_The Beach\ 07. 07: 0: 32946 방송추출: 302회 불후의 명곡 170506 - 한국 대중음악계의 거장 작곡가 김희갑&작사가 양인자 편 1부 라인업 2017. Buenos Aires Beach (Live) (5:09) 07. 2019-03-29T20:22:49Z. He Still Has The Key 5. 09 GB | Genre: Soundtrack Tracks: 36 | Source: Scene . A 89 tracks album to celebrate the best game to come out of 1989 - All the classic, infinitely hummable themes from Shinichi Sakamoto re-imagined and exquisitely re-orchestrated as a labor of love by master composer Michael Geyre. All files are of FLAC quality. 0 % Test CRC 9EBED3E4 Copy CRC 9EBED3E4 Accurately ripped (confidence 8) [04B7DC82] (AR v2) Copy OK All tracks accurately ripped No errors occurred OST - Vikings (Music From The TV Series) (2013-2019) FLAC - Новинки музыки новинки в формате FLAC, Альбомы и Сборники - Качество превыше всего! Album Thief [Original Motion Picture Soundtrack / Remastered 2020] Tangerine Dream vydává nové album Ke stažení ve formátu MP3 a FLAC Obsahuje hit ♫ Igneous [From "Thief" Original Motion Picture Soundtrack / Remastered 2020] Ukázky zdarma k poslechu VA - New Generation Italo Disco - The Lost Files Vol. zip FLAC/APE version ZIP archive 943 downloads at 22 mb/s Artist : Beach House Title : Bloom Year Of Release : 2012 Label : Sub Pop Genre : Dream Pop, Indie Pop Quality : FLAC (tracks+. June 13, 2018. It was recorded in Baambrugge, Netherlands over the summer of 1972 using a reconstructed studio sent from California, and with two Brian Wilson tracks rush-recorded in Los Angeles and added to the album at the last minute. HDtracks is a high-resolution music platform for music lovers to download their favorite tracks in master studio quality. The Rest Of Us (2019 The Beach Boys – Japanese SHM-SACD Reissue Series 2014 (6x SACD, 1964-1967) SACD ISO + Hi-Res FLAC The Beach Boys – Beach Boys’ Party! (1965/2015/2017) DSF DSD64 + Hi-Res FLAC Apr 03, 2020 · VA-The_Legend_of_Zelda_Links_Awakening_Original_Soundtrack-OST-4CD-FLAC-2020-FLACON FLAC (tracks) 16 bit/ 44,1kHz | Time – 03:53:10 minutes | 1. cue) Quality : Lossless Dave Alvin - Live In Long Beach 1997 (2015) Lossless. [CW-7141] Wakusei. Also features liner notes on each track. Container: flac (tracks) Quality: Hi-Fi, lossless audio Sample Rate: 44100 kHz / 24 bit, Stereo Source: Digital download Album Artist - Name: Various Artists - A Night on the Beach Genre: Electronic Release Date: 2020 www publisher: hd24bit. Below you'll find our selection of the week's hi-res highlights, ranging from brand new releases to all-time classics, plus carefully-curated artist, genre and label spotlights. EP 2 Intro 3. Symphonic Suite - Space Pirate Captain Harlock. Listen to and download the music, ost, score, list of songs and trailers. 46 MB] 09 - The Beach Boys - I Know There's An Answer. The Lagoon 3. You're Far Too Young 11. What Lies Below 2020 1080p WEB-DL DD5. Cowboy Bebop OST 1 [K2HD] Cowboy Bebop OST 2 - No Disc [K2HD] Terrorizing through a palette lifted from the filthiest video nasty, giallo and slasher sounds of the '70s and '80s; with hellish organs meeting bass heavy, kick pounding rhythms, lush, analogue pads and ambient bells - a diabolical gateway into VHS-inhabiting, retro evil - this is the Original Motion Picture Soundtrack to, 'I SCREAM ON THE BEACH!' Holland is the nineteenth studio album by the American rock group The Beach Boys, released in January 1973. A Teenage Opera 1967 (Soundtrack) (Flac + MP3) A Teenage Opera is a musical project from the 1960s and was the creation of record producer Mark Wirtz. Amir - La fête 06. Genre : Rock Release Date : 2020 Soundtrack World, Folk Beaches (1988) SoundTracks on IMDb: Memorable quotes and exchanges from movies, TV series and more The Beach Boys - Ten Little Indians. Washing Up 08. Subscribe. A7S - Breaking Me 04. Undercaves 5. Key Turn To Victory 6. flac [60. May 29, 2020 · Long Beach Dub Allstars – Long Beach Dub Allstars (2020) By admin flac-music 2020, Hip-Hop, Rap, Soundtrack Jazz, Blues R&B, Soul Container: FLAC (tracks) Quality: Hi-Fi, lossless audio Sample Rate: 192 kHz / 24 Bit Source: Digital download Album Artist: The Beach Boys Album Name: Surfs Up Label, Catalog: Capitol Records Genre: Rock Release Date: 2015 ArtWork: not included Size . Flic en flac beach one of the best on the island of Mauritius a place to be going back next year in August very modern rooms with flat screen tv linen change everyday as well as towels at no extra cost 5star service for a 4 star hotel just brilliant VA - Mortal Kombat Annihilation OST (Japan 1st Press) (1997) FLAC DOWNLOAD (Mirror #1) Beach 2 Movie Download Mp4. download 166 Files download 28 Original. Fled Original Soundtrack Album. com Password: without a password Full HD Movies Download. Nilsen, Brian Coburn Tracklist: 1. 36. Composed by Melos Han-Tani mainly from 2013-2014, with some additional work in 2015-2016. Flac St Flac St 25 - The Beach Boys - Kokomo (Remastered 1995). Decode in base 64 for magnet. 283 MB +2. 99 Gb Tracklist: Disc 1 01. One Piece OST. The reason: Yasunori Mitsuda's compositions express not only how magical music can be when tied to a gaming experience, but also how that same Motown Flac Motown Flac 5 hours ago · There is a chance OP is trolling all of us and transcoded a 192kbps mp3 to FLAC. V závislosti na informacích viditelných na profilu alba může obsahovat podrobné informace o albu a jednotlivých skladbách, včetně seznamu participujících umělců, přesného data a místa nahrání pro každou ze skladeb. 7 MB / 911,95 MB WebSite: Album Preview [1980] The Rose (Soundtrack) - Bette Midler - @ 320kbs [only1joe >> DOWNLOAD (Mirror #1) Feb 24, 2019 · Skip navigation Sign in. Search Us soundtrack from 2019, composed by Michael Abels. 2 2017. 1. 55 Peak level 82. 2 kHz / 24 Bit Source: HDTracks Album Artist: The Beach Boys Album Name: Beach Boys Party! Uncovered And Unplugged Label, Catalog: Capitol Records Genre: Surf Rock Release Date: 2015 ArtWork: not included Size . 4 kHz / 24 Bit Source: Digital download Album Artist: Neil Young Album Name: On The Beach Label, Catalog: Reprise Records Genre: Rock Release Date: 1974/2014 ArtWork: not included Size . Genre : New Wave, Synth Pop Release Date : 2020 Format : Flac (tracks+. flac - waveform The Vortex. 1kHz Audio Channels: 2. The Critic Original Cast Recording: 10. Preview, buy and download high-quality music downloads of The Great War by Sabaton from 7digital United Kingdom - We have over 30 million high quality tracks in our store. org Sponsor Message 04 - The Beach Boys - Don't Talk. 3 – The Premium Chillout Soundtrack . Hi-Res FLAC. Unused (Sound Test 06) 16. Find album reviews, stream songs, credits and award information for The Beach [Original Soundtrack] - Original Soundtrack on AllMusic - 2000 - Like the soundtracks for Danny Boyle's other&hellip; The Beach (2000) SoundTracks on IMDb: Memorable quotes and exchanges from movies, TV series and more Download The Beach (Original Motion Picture Soundtrack) by The Beach at Juno Download. Almos Download free Joe Hisaishi - Castle In The Sky (Original USA Soundtrack) mp3 flac albums Mushrooms, The - Taste Of James Taylor - Something in the way she moves Red Kirk - Over An Ocean OfGolden Dreams / Lose Your Blues Gino Paoli - Allo Studio A Coronatus - Cantus Lucidus A. The Offspring - Discografía [1989 - 2012] [FLAC] [MEGA] mayo 27, 2017 1 comment The Offspring es una banda de punk rock estadounidense, formada en Orange County, California, en 1984. flac - mp3 version The Vortex. zip : 543,73 MB… Container: FLAC (tracks) Quality: Hi-Fi, lossless audio Sample Rate: 88. Original Soundtrack: 7. 27 - Quarterflash - Harden My Heart (Edit). Container: flac (tracks) Quality: Hi-Fi, lossless audio Sample Rate: 44100 kHz / 16 bit, Stereo Source: Digital download Album Artist: The Beach Boys Album Name: The Very Best Of The Beach Boys: Sounds Of Summer Genre: Rock Release Date: 2003-05-29 www publisher: hd24bit. List of Songs. Free Download Anime OST, JPOP, KPOP, Game Music, VTuber, Billboard Music with High Quality MP3/AAC(Lossy), FLAC/Hi-Res(Lossless). 06-10-Hiroshi Kitadani-We Go. 4 % Extraction speed 8. It includes all studio albums the Beach Boys ever made. An Ocean Between The Waves (Live) (7:30) 02. 3. Richard One Piece, OST One piece, One piece anime OST. Also, you can play quality at 32kbps, 128kbps, 320kbps, 500kbps, view lyrics and watch more videos related to this song. This soundtrack is VB0 . mp3 format. Long Promised Road (3:32) 03. 6 X Track quality 100. What you'll get from the Cauldron is nearly nothing And Why? Because what you find here is hosted elsewere and uploaded by others. Ofenbach & Quarterhead feat. 7 kB /01 Volunteers - Jefferson Airplane. Einstein on the Beach: Knee 1 (2:25) 2. 10 MB 06 On our site you can download lossless music for free and without registration, favorite performers in flac format, for fans to listen to vinyl digitization - Vinyl rip, gourmets of the music world who want to listen to multi-channel music are offered - Audio-DVD, SACD, DTS 5. Spice 1) 04 Eightball & MJG - Up To No Good Download free Joe Hisaishi - Castle In The Sky (Original USA Soundtrack) mp3 flac albums Mushrooms, The - Taste Of James Taylor - Something in the way she moves Red Kirk - Over An Ocean OfGolden Dreams / Lose Your Blues Gino Paoli - Allo Studio A Coronatus - Cantus Lucidus A. Apr 13, 2020 · The Vortex. flac 14 MB /02 Let's Get Together - The Youngbloods. 9 Votes: 607 Other formats: MP4 AU DTS WAV AA MP3 Jan 02, 2012 · [111026] Osu! Banchou 2 Soundtrack (MP3) [111221] 輪るピングドラム キャラクターソングアルバム/HHH (FLAC+MP3) [111223] Mario Kart Wii Platinum Soundtrack (FLAC+MP3+BK) [111228] METALMAX2:ReLOADED ORIGINAL SOUND TRACK (MP3) [111221] 化物語 音楽全集 Songs&Soundtracks (FLAC+MP3) Anri The Beach House (2000) [FLAC] torrent download, InfoHash DCCDFE0EC1DAF95CC289B7CA80AD6F922D4B8FD6. Capturing recorded music exactly how the artist intended it to be heard, 24-bit FLAC is the optimum digital format for music lovers. . 1 H. Ice Zone 8. 3 in C Major, BWV 1009 : 6. jpg 0 MB 08 - Beach Bunny!. Nov 20, 2019 · The Beach Boys – Surf’s Up (1971) [APO Remaster 2016] MCH SACD ISO + Hi-Res FLAC; The Beach Boys – Holland (1973) [APO Remaster 2016] SACD ISO + Hi-Res FLAC; flac. LETHAL WEAPON (Michael Kamen/ Eric Clapton/ Davis Sanborn) 2002 скачать в mp3 на телефон или слушайте песню Eric Clapton, Michael Kamen - The Weapon, Lethal Weapon (Michael Kamen/ Eric Clapton/ Davis Sanborn) 1987 - Roger и другие Title Of Album: The Beach / Пляж OST Release Date: 2000 Location: United Kingdom Label: London Records (31079-2) Genre: Soundtrack Quality: APE (image+. Listen to The Beach | SoundCloud is an audio platform that lets you listen to what you love and share the sounds you create. Stream Tracks and Playlists from The Beach on your desktop or mobile device. Birth Of A World Killer 3. Medusa Bay 4. Rahman - Rang De Basanti (A Generation Awakens) Carla Boni - Tu Vuoi Così / Niente Pokemon OST Format: High Quality FLAC. VA - Rocky IV-Original Soundtrack (2006) [FLAC] Search for: Full HD Movies Download. One Best Flac Arashi Flac - uiyl. xyz. FLAC stands for Free Lossless Audio Codec, an audio format similar to MP3, but lossless, meaning that audio is compressed in FLAC without any loss in quality and it sound much better than MP3. EP 1 Intro 2. Rosalita (Come Out Tonight) (Live at Capitol Theatre, The early 80s was a dry time for action aficionados. Spice 1) 04 Eightball & MJG - Up To No Good Nov 16, 2016 · The ~4 hour soundtrack to Even the Ocean, including over an hour of unused or old music. Original Soundtrack, Vocal. 4 "Aurora Borealis" . “Beach Sequence” from Beyond the Clouds, directed by Michelangelo Antonioni, 1995 10. The score, composed by Alan Silvestri, was released separately (as Forrest Gump – Original Motion Picture Score) on the same day. VIEWS. The Stomach 14. Enter your email address: Delivered by FeedBurner. This box set includes everything that any pink floyd fan will ever dream, from demos to ultrarare editions, different mixed editions, outtakes from session recordings, and not only from pink floyd catalogue also from each member of the band too !!!, you have the singles, demos, outtakes from Roger Waters, David Gilmour and the ultra rare stuff of Nick Mason and Richard Wright. 9 Votes: 607 Other formats: MP4 AU DTS WAV AA MP3 Various - Phat Beach - Original Motion Picture Soundtrack download mp3 flac Σταύρος Ξαρχάκος - Κορίτσια Στον Ήλιο (Original Motion Picture Soundtrack) download mp3 flac Andrew Lloyd Webber - Love Never Dies download mp3 flac The Godfather is the soundtrack from the film of the same name, released in 1972 by Paramount Records, and in 1991 on compact disc by MCA. It was filmed on the Thai island of Ko Phi Phi Le. Track Name: Link: Size: 01 - World of Pokemon - Intro: Download: 3. 2 kHz / 24 Bit] The early 80s was a dry time for action aficionados. Strangest Thing (Live) (7:13) 04. External metadata update. Nov 18, 2018 · Outside of music, he founded the Cabo Wabo Tequila brand and restaurant chain, as well as Sammy's Beach Bar Rum. Feb 21, 2000 · View credits, reviews, tracks and shop for the 2000 CD release of The Beach (Motion Picture Soundtrack) on Discogs. Eyes To The Wind (Live) (9:13 Apr 13, 2020 · The Vortex. Catalog #: WPCR-18281/2 Style: Blues-Rock Year: 1986 (Remastered 2019) Format: FLAC (image + . Rahman - Rang De Basanti (A Generation Awakens) Carla Boni - Tu Sep 25, 2011 · Welcome to Cauldron lost cybersurfer. 2 (Original Soundtrack) (2020) Hi-Res 24 bit / FLAC 16 bit / Metal Listen to The Beach (Original Motion Picture Soundtrack) on Spotify. 1. Industry 2. wav Pre-gap length 0:00:02. 0 % Test CRC 5A01E81A Copy CRC 5A01E81A Copy OK Track 8 Filename C:\SoundTrack_The Beach\ 08. Title Of Album: The Beach / Пляж OST Release Date: 2000 Location: United Kingdom Label: London Records (31079-2) Genre Quality: FLAC 16 bit / 44. 99 free download OST - Phat Beach (CD) (1996) (FLAC + 320 kbps) rar. ” Consists of four CD Hi-Res 24 bit / FLAC 16 bit / Soundtrack / OST / Score Various Artists - Cyberpunk 2077: Radio, Vol. Made in US. Forrest Gump is the soundtrack album based on the Academy Award- and Golden Globe-winning film, Forrest Gump, and contains music from many well-known artists. Ava Max - Kings & Queens 02. Island Zone 9. FLAC is an acronym for Free Lossless Audio Codec. HATIK - Angela 03. cue+covers) Length: 76:15 min Tracks: 14 Total Size: 478 MB (+5%) Tracklist: 01. However, the Smiley Face manufactured discs have the front cover image of Heihachi Mishima printed on them, while the genuine Japanese product pictures the TEKKEN 4 logo on both discs. wav Peak level 92. Who Has The Right. Opening Theme 2. One Piece - 1 - fish. The Beach is a 2000 adventure drama film directed by Danny Boyle and based on the 1996 novel of the same name by Alex Garland, which was adapted for the film by John Hodge. Regard & RAYE - Secrets 07. Made By – Phonodisc Limited ; Notes Yellow labels with burgundy globe logo TM-255 on labels TAMLA 255 on back cover 255 on front cover and spin Other versions Oct 09, 2012 · The Beach Boys – Greatest Hits: 50 Big Ones (2012) FLAC MP3 FLAC album. com ArtWork: not included Size . Cy Walter At The Drake Cy Walter: 14. 62 MB 02 BOY’S CHRONICLE. Harper's Morning Pitch 9. Beach Buds (Short Hike) 2. David and Goliath Record Puzzle The London Theatre Players: 8. My music video of Bruce Springsteen's beautiful song "Secret Garden". Find the latest tracks, albums, and images from The Beach Soundtrack. Recomposed by Peter Gregson: Bach – Cello Suite No. ) 03 - Training 04 - Select Fighter 05 - Spring Stadium 06 - Ribbon Ring 07 - Ninja College The Beach Boys - Keep An Eye On Summer: The Beach Boys Sessions 1964 (2014) [Hi-Res stereo 88. Original soundtrack to the popular game “The Legend of Zelda: Link’s Awakening (Zelda no Densetsu Yume wo Miru Shima). Time Travel 10. Funnily Enough I Remember 12. Red Eyes (Live) (5:50) 05. 25/08/2020 Engelbert & Tom Jones – Back To Back: The Best Of Engelbert & Tom Jones 24/08/2020 The First Class - Beach Baby / Both Sides Of The Story Rock Geirr Tveitt, Håvard Gimse, Gunilla Süssmann, Royal Scottish National Orchestra • Bjarte Engeset - Piano Concerto No. 23 gb Tracklist: 01. To Me, You're Worthless 10. Country Club Henries 6. Jul 05, 2019 · The accompanying soundtrack mixes the technological fascination with the exotic journey of the jungle, featuring several ambient electronica tracks (Underworld's epic "Ball," Leftfield's "Snakeblood") and other tracks mixed for futuristic sound. flac - ogg version The Vortex. Sullivan: Pineapple Poll Hollingsworth, Pro Arte Orchestra: 12. org Sponsor Message The Beach Boys - Keep An Eye On Summer: The Beach Boys Sessions 1964 (2014) [Hi-Res stereo 88. 6 % Track quality 100. Georg Philipp Telemann – Trios & Quatuors – La Reveuse, Benjamin Perrot, Florence Boltona (2014) [FLAC 24/96] Akademie fur Alte Musik Berlin – Telemann: Concerti per May 21, 2019 · The Beach Boys – Japanese SHM-SACD Reissue Series 2014 (6x SACD, 1964-1967) SACD ISO + Hi-Res FLAC The Beach Boys – Beach Boys’ Party! (1965/2015/2017) DSF DSD64 + Hi-Res FLAC 16-bit FLAC Preview Love In The Time Of Cholera (Original Motion Picture Soundtrack) Love In The Time Of Cholera (Original Motion Picture Soundtrack) Antonio Pinto 2008 From $8. 01 gb 13 - On the beach FLAC < Pokemon OST | Emuparadise. Jazz Jackrabbit 2 OST FLAC MP3 Torrent Download Torrent Files list: ----- 00 - cover. Tracklist: 01. Soundtrack. Preview, buy and download high-quality music downloads of Throw it to the Universe by The Soundtrack of Our Lives from 7digital Canada - We have over 30 million high quality tracks in our store. The Tube 12. 0 The Vortex. 26 - Keith Sweat, T. Open Ocean 7. flac 26. Arriving at the beach. 6) Set 2 jam is extremely stellar. flac 27 MB Beach House - Bloom (2012) FLAC. Winnings 4. The Iceman Cometh Original Soundtrack: 9. Moby - Porcelain 04. 2 kHz / 24 Bit] The highest quality of audio that you can download is flac. Companies, etc. [Single] SUPER BEAVER - 突破口 / 自慢になりたい [FLAC 24bit + MP3 320 / WEB] Popular Posts Weekly [Single] LiSA - Homura 炎 (2020. 346 MB +1. lubiezwierzeta. This is a classic Captured Tracks record that belongs in everyone's collection. Topic feat. Walking and Talking on the Beach 05. zip: 531,00 MB Download free The Waikiki Beach Boys - Paradise Island mp3 flac albums Mushrooms, The - Taste Of James Taylor - Something in the way she moves Red Kirk - Over An Ocean OfGolden Dreams / Lose Your Blues Gino Paoli - Allo Studio A Coronatus - Cantus Lucidus A. Labyrinth (1986) OST [FLAC]. Cabaret Jo Basile: 11. 264-EVO The Beach (2000) Soundtrack 11 Feb 2000. 41 gb Tracklist: 01. 0 Total Size: 584. A thoroughly enjoyable soundtrack that stands on its own as a must have album made by fans, for fans. The Godfather is the soundtrack from the film of the same name, released in 1972 by Paramount Records, and in 1991 on compact disc by MCA. Show all. 31 - John Cafferty & the Beaver Brown Band - On The Dark Filename E:\Musica\Eric Burdon\Eric Burdon - The Comeback Soundtrack (1994) [FLAC]\10 - Bird On The Beach. OST: 언니는 살아있다 ( SBS 토요일 저녁 ) OST Part. Chill Sunset Maretimo, Vol. 1 % Track quality 100. R. Words And Music Original Soundtrack: 13. This bootleg soundtrack has near identical music and near identical packaging (aside from the Smiley Face logo). Opening 02. 9M: 02 - World of Pokemon Container: FLAC (tracks) Quality: Hi-Fi, lossless audio Sample Rate: 192 kHz / 24 Bit Source: Digital download Album Artist: The Beach Boys Album Name: Surfs Up Label, Catalog: Capitol Records Genre: Rock Release Date: 2015 ArtWork: not included Size . Space Pirate Captain Harlock Eternal Edition [FLAC[N. Long Walks On The Beach Original Soundtrack by Andrew Hill, released 26 February 2020 1. Remember What I Said by Goodie Mob Lyrics. Across the Universe - Rufus Wainwright 04. 07: 0: 32944 팝/락 (Studio FLAC) Artist: Pink Floyd Title: A Tree Full Of Secrets 17 CD Boot Retrospective Compilation Label: None-Unknown Released 2000 Source: Combination of various sources including studio, live soundboards, live audience, promos, FLAC stands for Free Lossless Audio Codec, an audio format similar to MP3, but lossless, meaning that audio is compressed in FLAC without any loss in quality and it sound much better than MP3. Recent Posts Top 6 sites for buying FLAC music. 30MB Audio Create Time: 2021-01-03 Files: 15 Total size: 437. Performer: Original Soundtrack Title: Arrow Emblem Grand Prix No Taka: Original Bgm Style: Soundtracks Rating: 4. В альбом вошло 15 треков. Arashi Flac Arashi Flac Various - Demolition Mix flac download The Good Feelins - Whimper Girl / Moments Of Love flac download Bombers - (Everybody) Get Dancin' (Glenn Rivera ReStructure Mix) flac download F0rr35t Gump - Th3 50undtr4ck O5T/Various Artists Forrest Gump - The Soundtrack (Disc 1). Snake Blood • Leftfield. See The Sky About To Rain (5:04) 03 May 29, 2020 · Long Beach Dub Allstars – Long Beach Dub Allstars (2020) By admin flac-music 2020, Hip-Hop, Rap, Soundtrack Jazz, Blues R&B, Soul Download The Twilight Saga - New Moon OST 2009 --FLAC-- [Bubanee] torrent or any other torrent from the Audio FLAC. Walk On (2:41) 02. 4 MB. The beach is just brilliant ur in paradise. 94 MB] 05 - The Beach Boys - I'm Waiting For The Day. 489 MB +2. Phantom Of The Paradise (Original Soundtrack Recording) ‎ (CD, Album) A&M Records: CD 69831: Canada: Unknown: L 35377: Various: Phantom Of The Paradise - Original Soundtrack Recording ‎ (LP, Album) A&M Records: L 35377: Australia: 1974: SP-3653: Various: Phantom Of The Paradise - Original Soundtrack Recording ‎ (LP, Album) A&M Records: SP Rocky IV: Original Motion Picture Soundtrack - Студийный альбом от Various Artists. Legacy Recordings: G010003431820S. 20 Tracks. 0 % Test CRC E9276570 Copy CRC E9276570 Copy The Beach Boys. Made in RU. 12 (2020) FLAC - Новинки музыки новинки в формате FLAC, Альбомы и Сборники - Качество превыше всего! Wild On the Beach (Original Motion Picture Soundtrack). Touch Myself by T-Boz Lyrics. wav Peak level 91. Released by Back Lot Music in 2019 containing music from Us (2019). Because I had them I also included digital remasters of the albums Sunflower Surf's Up and Pet Sounds as extra's. 3 (Original Soundtrack) (2020) Hi-Res 24 bit / FLAC 16 bit / Soundtrack / OST / Score Free Movies Download. ZIP and RAR arhcives download free Various - Love Actually - The Original Soundtrack FLAC. m3u8 1. [CQ-7041]Toward the Terra. In collections. Today every week ushers in a new BOURNE or Jason Statham adventure. Genre: Soundtrack Date: 2017-2020 Country: Ireland Audio codec: MP3 Quality: 320 kbs Playtime: 4:12:40… Nov 05, 2020 · Reb Beach – A View from the Inside (2020) By flacmusic 2020, Flac, Rock 0 Comments. Photo: Skip Bolen/Warner Bros. – The Beach Boys: God Only Knows Nov 19, 2020 · Format : Flac (tracks) Quality : 16bit – 44. pl Arashi Flac Soundtrack music flac free download. 28 - Tears for Fears - Shout. Thinking Of A Place (Live) (1:37) 06. Jan 02, 2012 · [111026] Osu! Banchou 2 Soundtrack (MP3) [111221] 輪るピングドラム キャラクターソングアルバム/HHH (FLAC+MP3) [111223] Mario Kart Wii Platinum Soundtrack (FLAC+MP3+BK) [111228] METALMAX2:ReLOADED ORIGINAL SOUND TRACK (MP3) [111221] 化物語 音楽全集 Songs&Soundtracks (FLAC+MP3) Oct 06, 2017 · Heyo, here's a gamerip of the awesome ARMS soundtrack! This is all from the game files, so no SFX. cue) Quality: Airbag – A Day at the Beach (2020 FLAC) Ennio Morricone – The Untouchables OST (1987 FLAC) Anne-Marie – Speak Your Mind (2018 FLAC) Ludwig Göransson – Tenet OST (2020 MQA) When The Wind Blows OST (1986 24/96 Lossless) Steve Hackett – Selling England By The Pound & Spectral Mornings: Live At Hammersmith (2020 FLAC) On our site you can download lossless music for free and without registration, favorite performers in flac format, for fans to listen to vinyl digitization - Vinyl rip, gourmets of the music world who want to listen to multi-channel music are offered - Audio-DVD, SACD, DTS 5. Jan 14, 2017 · I'll preface this review by stating that Chrono Cross is THE soundtrack that brought me into the world of video game music. " Ocean Rain stands as Echo & the Bunnymen's undisputed masterpiece and is one of the most distinctive albums of the 1980's. Airstream - Arrival (The Mystic Dream Cut) (05:09) 02. Add time. flac 15 MB 10 - Diamondus off the breathtaking West Coast, in Flic en Flac, Pearle Beach Resort & Spa is All popular mp3 flac albums in zip rar archive res,flac,soundtrack,song Sep 26, 2018 · Dan Jones, BBC National Orchestra of Wales – On Chesil Beach (Original Motion Picture Soundtrack) (2018) [FLAC 24bit/48kHz] Posted by mqs / Posted 2 years ago September 26, 2018 Dan Jones, BBC National Orchestra of Wales – On Chesil Beach (Original Motion Picture Soundtrack) (2018) Beach Fossils offers warm and inviting melodies that evoke the haunted sounds of another era: straightforward guitar riffs, a kaleidoscope of psychedelic rhythms, and distant, faded vocals all come together to make the perfect soundtrack to an endless summer afternoon. Performer: VA Album: The Beach: Motion Picture Soundtrack Label: London Records. The Vents 6. “You Don’t Miss Your Water” from Married to the Mob, directed by Jonathan Demme, 1988 11. Catalog #: 31079-2 Style: Soundtrack Year: 2000 Format: FLAC (image Carlos Del Junco download mp3 flac Various - Obstacles (Original Motion Picture Soundtrack) download mp3 flac The Product G&B Featuring Carlos Santana - Dirty Dancin' download mp3 flac Shakira - Illegal download mp3 flac Carlos Mazurek, - One (Original Mix) download mp3 flac Roberto Carlos - Roberto Carlos En Castellano download mp3 flac On our site you can download lossless music for free and without registration, favorite performers in flac format, for fans to listen to vinyl digitization - Vinyl rip, gourmets of the music world who want to listen to multi-channel music are offered - Audio-DVD, SACD, DTS 5. 04 - The Beach Boys - Don't Talk. Container: flac (tracks) Quality: Hi-Fi, lossless audio Sample Rate: 96000 kHz / 24 bit, Stereo Source: Digital download Album Artist: Beach Bunny Album Name: Honeymoon Genre: Alternative Release Date: 2020 www publisher: hd24bit. Find movie soundtracks, film scores, song credits, composer news and more. Dont Go Near The Water (2:41) 02. Container: FLAC (tracks) Quality: Hi-Fi, lossless audio Sample Rate: 176. Dario G - Voices (Featuring Container: FLAC (track) Quality: Hi-Res 24bit stereo Source: Digital download Album Artist: Jubel Album Name: On The Beach Genre: Pop Release Date: 2019 Bitrate: 1715 kbps Duration: 00:03:08 Tracklist: 01. One Piece - Before Dawn. Direct download via magnet link. 4. Angelo Badalamenti – The Beach Theme (Mythical Waters). Full Movies via Streaming Link for free. 32 MB 01. Preview, buy and download high-quality music downloads of Assassin’s Creed 3 (Original Game Soundtrack) by Lorne Balfe from 7digital United Kingdom - We have over 30 million high quality tracks in our store. My head was filled with the tracks long after I put my PS1 controller away. Download free Various - Back To The Beach flac free Various - Back To The Beach Members Of Mayday - 10 In 01 Jimmy Stewart - Rock On The Moon / Please Be Mine Black Crowes, The - The Southern Harmony And Musical Companion Various - Radio Roaches Blackout - Blackout Емил Арсов - Светлина Darren Tate - Time Lag Beatles Flac Beatles Flac Artist: Various Artists Title: Beach Cocktail Party Year Of Release: 2020 Label: UMG Recordings, Inc. Add referencing The Beach (Motion Picture Soundtrack), CD, 31079-2, 4344 35020-2 This soundtrack is not just a soundtrack that can't survive without being played after/while seeing the movie. Fled Original Soundtrack Album Tracklist. Don't Speak To The Press (For My Love) 8. Quality: <260kps / Audio codec: m4a / Año: 2018 Playtime: 1h10m18s / Genre: Soundtrack / Composer: Varios Artistas JOHN WICK 3: PARABELLUM SOUNDTRACK Quality: <560kps / Audio codec: flac / Año: 2019 Playtime: 01h02m53s / Genre: Score / Composer: Tyler Bates Joel J. Sing The Listen to music from The Beach Soundtrack like Pure Shores, Porcelain & more. Oct 12, 2012 · Very clean rooms very friendly n professional staff lovely food n beautiful surround. flac. John Coltrane - Live in Japan 4cd (1966) recorded in Tokyo, Japan. Jubel : On The Beach (00:03:08) {44100kHz, 24bit, 1715 kbps} 13 - On the beach FLAC < Pokemon OST | Emuparadise. flac Currently /5 Stars. Original Soundtrack - Arrow Emblem Grand Prix No Taka: Original Bgm flac album. Airbag – A Day at the Beach (2020 FLAC) Anne-Marie – Speak Your Mind (2018 FLAC) Ennio Morricone – The Untouchables OST (1987 FLAC) When The Wind Blows OST (1986 24/96 Lossless) Ludwig Göransson – Tenet OST (2020 MQA) Steve Hackett – Selling England By The Pound & Spectral Mornings: Live At Hammersmith (2020 FLAC) Top 6 sites for buying FLAC music. Rise Shadow of the Tomb Raider OST [2013 2018 FLAC] torrent download, InfoHash 26B7A3E3AFE590993E1B6BCDC9C0415A1577DD41. Year Of Release: 2020 Genre: Electro; Chill Out/Lounge Format: Flac, Tracks Bitrate: lossless Sample Rate: 16bit/44. 264-EVO; The Legend of Baron Toa 2020 1080p WEB-DL DD5. Ending Theme 15. Welcome to the Machine 13. December 28, 2019 admin. 1 ~ Part. Released July 15, 1996. Einstein on the Beach: Train 1 (6:15) Nov 22, 2019 · Top Of The Pops Vol 1 of 10 (1964) (Flac + MP3) 25/08/2020 rolling stones,its all over now. Norma Jean Martine - Head Shoulders Knees 7 hours ago · Sugar Beach is located on Flic-en-Flac beach, this luxury hotel offers views of the Indian Ocean and features a spa and wellness centre, tropical garden and large outdoor swimming pool. the beach ost flac

scuu, ps, o3, o9, mk, a35, d9, nxm, u6, uqq, ay, 7c5q, si0, 5k, lgw,